#TITLE:9 0 0 B P M;
#SUBTITLE:;
#ARTIST:MaxX OmegA;
#TITLETRANSLIT:;
#SUBTITLETRANSLIT:;
#ARTISTTRANSLIT:;
#CREDIT:;
#BANNER:900bpm-bn.png;
#BACKGROUND:900bpm-bg.png;
#LYRICSPATH:;
#CDTITLE:cdtitle.png;
#MUSIC:900bpm.mp3;
#OFFSET:0.040;
#SAMPLESTART:6.667;
#SAMPLELENGTH:12.000;
#SELECTABLE:YES;
#BPMS:0.000=900.000,264.000=145.005,316.000=900.002,452.000=145.005,464.000=899.996,724.000=145.004,743.000=899.995,1249.000=145.004;
#STOPS:315.500=3.140
,463.500=2.300
,544.000=0.460
,564.000=0.180
,574.000=0.280
,580.000=0.220
,588.000=0.280
,618.000=0.080
,622.000=0.100
,624.000=0.100
,626.000=0.100
,628.000=0.100
,630.000=0.100
,632.000=0.100
,634.000=0.100
,636.000=0.100
,638.000=0.100
,640.000=0.100
,642.000=0.100
,644.000=0.100
,646.000=0.100
,648.000=0.100
,650.000=0.100
,652.000=0.100
,654.000=0.100
,656.000=0.100
,658.000=0.100
,660.000=0.120
,662.000=0.120
,664.000=0.120
,666.000=0.120
,668.000=0.120
,670.000=0.100
,672.000=0.100
,740.500=0.580
,741.500=0.600
;
#BGCHANGES:;
// cache tags:
#FIRSTBEAT:0.000;
#LASTBEAT:1256.000;
#SONGFILENAME:Songs/Music V.I.P ^_^/9 0 0 B P M/900.sm;
#HASMUSIC:1;
#HASBANNER:1;
#MUSICLENGTH:132.958;
// end cache tags

//---------------dance-single - ----------------
#NOTES:
     dance-single:
     :
     Hard:
     10:
     0.699,1.000,0.000,0.256,0.000,617.000,0.000,34.000,0.000,0.000:  // measure 1
0001
0000
0010
0000
,  // measure 2
1000
0000
0100
0000
,  // measure 3
0001
0000
1000
0000
,  // measure 4
0010
0000
0100
0000
,  // measure 5
0001
0000
0100
0000
,  // measure 6
0010
0000
1000
0000
,  // measure 7
0100
0000
0010
0000
,  // measure 8
0001
0000
0100
0000
,  // measure 9
1000
0000
0001
0000
,  // measure 10
0010
0000
1000
0000
,  // measure 11
0100
0000
0001
0000
,  // measure 12
1000
0000
0010
0000
,  // measure 13
0100
0000
0001
0000
,  // measure 14
0100
0000
1000
0000
,  // measure 15
0100
0000
0010
0000
,  // measure 16
1000
0000
0001
0000
,  // measure 17
0100
0000
1000
0000
,  // measure 18
0001
0000
1000
0000
,  // measure 19
0010
0000
0100
0000
,  // measure 20
0001
0000
1000
0000
,  // measure 21
0001
0000
0100
0000
,  // measure 22
1000
0000
0010
0000
,  // measure 23
1000
0000
0100
0000
,  // measure 24
0001
0000
1000
0000
,  // measure 25
0001
0000
0010
0000
,  // measure 26
1000
0000
0100
0000
,  // measure 27
1000
0000
0001
0000
,  // measure 28
0010
0000
1000
0000
,  // measure 29
0001
0000
0010
0000
,  // measure 30
1000
0000
0100
0000
,  // measure 31
0010
0000
0001
0000
,  // measure 32
0010
0000
0100
0000
,  // measure 33
1000
0000
0100
0000
,  // measure 34
0010
0000
0001
0000
,  // measure 35
0010
0000
0100
0000
,  // measure 36
1000
0000
0100
0000
,  // measure 37
0010
0000
0001
0000
,  // measure 38
1000
0000
0001
0000
,  // measure 39
0100
0000
0001
0000
,  // measure 40
1000
0000
0010
0000
,  // measure 41
0100
0000
0001
0000
,  // measure 42
0100
0000
0001
0000
,  // measure 43
1000
0000
0001
0000
,  // measure 44
0100
0000
0010
0000
,  // measure 45
1000
0000
0001
0000
,  // measure 46
0100
0000
0010
0000
,  // measure 47
1000
0000
0001
0000
,  // measure 48
0100
0000
0010
0000
,  // measure 49
1000
0000
0001
0000
,  // measure 50
0100
0000
0010
0000
,  // measure 51
1000
0000
0001
0000
,  // measure 52
0100
0000
0010
0000
,  // measure 53
1000
0000
0001
0000
,  // measure 54
0100
0000
0010
0000
,  // measure 55
1000
0000
0010
0000
,  // measure 56
0100
0000
0001
0000
,  // measure 57
1000
0000
0001
0000
,  // measure 58
0100
0000
0010
0000
,  // measure 59
1000
0000
0010
0000
,  // measure 60
0100
0000
0001
0000
,  // measure 61
1000
0000
0001
0000
,  // measure 62
0100
0000
0001
0000
,  // measure 63
1000
0000
0001
0000
,  // measure 64
0100
0000
1000
0000
,  // measure 65
0010
0000
0100
0000
,  // measure 66
0001
0000
1000
0000
,  // measure 67
0200
0000
0000
0000
,  // measure 68
0000
0320
0000
0000
0000
0000
0032
0000
,  // measure 69
0000
0000
0000
2003
0000
0000
0000
0000
,  // measure 70
3020
0000
0000
0230
,  // measure 71
0000
0000
0000
0302
0000
0000
0000
0000
,  // measure 72
2003
0000
0000
0000
0000
3020
0000
0000
,  // measure 73
0000
0000
0230
0000
0000
0000
0000
0302
,  // measure 74
0000
0000
0000
0000
0000
0023
0000
0000
,  // measure 75
0000
0000
0230
0000
0000
0000
0000
2300
,  // measure 76
0000
0000
3020
0000
,  // measure 77
0000
0032
0000
0000
0000
0000
2003
0000
,  // measure 78
0000
0000
0000
3200
0000
0000
0000
0000
,  // measure 79
0000
0320
0000
0000
0000
0000
0030
0000
,  // measure 80
1000
0000
0100
0000
,  // measure 81
0010
0000
0001
0000
,  // measure 82
0010
0000
0100
0000
,  // measure 83
1000
0000
0010
0000
,  // measure 84
1000
0000
0010
0000
,  // measure 85
0001
0000
0100
0000
,  // measure 86
0010
0000
1000
0000
,  // measure 87
0001
0000
0100
0000
,  // measure 88
1000
0000
0001
0000
,  // measure 89
0100
0000
0010
0000
,  // measure 90
1000
0000
0010
0000
,  // measure 91
0100
0000
0001
0000
,  // measure 92
0010
0000
0100
0000
,  // measure 93
1000
0000
0100
0000
,  // measure 94
0010
0000
1000
0000
,  // measure 95
0001
0000
0100
0000
,  // measure 96
0001
0000
1000
0000
,  // measure 97
0001
0000
0100
0000
,  // measure 98
0001
0000
1000
0000
,  // measure 99
0010
0000
0100
0000
,  // measure 100
0001
0000
1000
0000
,  // measure 101
0010
0000
0100
0000
,  // measure 102
0001
0000
0010
0000
,  // measure 103
0100
0000
1000
0000
,  // measure 104
0001
0000
1000
0000
,  // measure 105
0100
0000
0010
0000
,  // measure 106
1000
0000
0100
0000
,  // measure 107
0001
0000
1000
0000
,  // measure 108
0010
0000
0100
0000
,  // measure 109
0001
0000
0100
0000
,  // measure 110
0010
0000
0001
0000
,  // measure 111
0100
0000
0010
0000
,  // measure 112
0100
0000
1000
0000
,  // measure 113
0001
0000
1000
0000
,  // measure 114
0002
0000
0000
0000
0000
0003
0002
0000
,  // measure 115
0000
0000
0003
2000
0000
0000
0000
3000
,  // measure 116
0020
0000
0000
0000
0030
0200
0300
0000
,  // measure 117
0001
0000
1000
0000
,  // measure 118
0001
0000
1000
0000
,  // measure 119
0001
0000
0010
0000
,  // measure 120
0100
0000
1000
0000
,  // measure 121
0001
0000
1000
0000
,  // measure 122
0001
0000
1000
0000
,  // measure 123
0001
0000
1000
0000
,  // measure 124
0100
0000
0010
0000
,  // measure 125
0001
0000
0100
0000
,  // measure 126
0001
0000
0100
0000
,  // measure 127
0001
0000
1000
0000
,  // measure 128
0010
0000
0100
0000
,  // measure 129
0001
0000
1000
0000
,  // measure 130
0001
0000
1000
0000
,  // measure 131
0100
0000
0010
0000
,  // measure 132
0100
0000
0010
0000
,  // measure 133
0001
0000
0100
0000
,  // measure 134
0010
0000
1000
0000
,  // measure 135
0001
0000
1000
0000
,  // measure 136
0010
0000
0100
0000
,  // measure 137
0001
0000
0010
0000
,  // measure 138
0100
0000
0001
0000
,  // measure 139
1000
0000
0010
0000
,  // measure 140
0100
0000
0001
0000
,  // measure 141
1000
0000
0100
0000
,  // measure 142
0010
0000
0001
0000
,  // measure 143
1000
0000
0100
0000
,  // measure 144
0010
0000
0001
0000
,  // measure 145
1000
0000
0100
0000
,  // measure 146
0001
0000
1000
0000
,  // measure 147
0010
0000
0100
0000
,  // measure 148
0001
0000
0010
0000
,  // measure 149
0100
0000
1000
0000
,  // measure 150
0001
0000
1000
0000
,  // measure 151
0100
0000
0010
0000
,  // measure 152
0001
0000
1000
0000
,  // measure 153
0010
0000
0100
0000
,  // measure 154
0001
0000
1000
0000
,  // measure 155
0100
0000
0010
0000
,  // measure 156
1000
0000
0001
0000
,  // measure 157
0100
0000
0001
0000
,  // measure 158
1000
0000
0100
0000
,  // measure 159
0010
0000
0001
0000
,  // measure 160
1000
0000
0001
0000
,  // measure 161
0100
0000
0010
0000
,  // measure 162
1000
0000
0001
0000
,  // measure 163
0100
0000
0010
0000
,  // measure 164
1000
0000
0001
0000
,  // measure 165
0100
0000
0001
0000
,  // measure 166
1000
0000
0001
0000
,  // measure 167
0010
0000
0100
0000
,  // measure 168
1000
0000
0001
0000
,  // measure 169
0100
0000
0010
0000
,  // measure 170
1000
0000
0001
0000
,  // measure 171
0010
0000
0100
0000
,  // measure 172
1000
0000
0001
0000
,  // measure 173
1000
0000
0100
0000
,  // measure 174
1000
0000
0010
0000
,  // measure 175
1000
0000
0100
0000
,  // measure 176
1000
0000
0001
0000
,  // measure 177
0100
0000
0010
0000
,  // measure 178
1000
0000
0001
0000
,  // measure 179
0100
0000
0010
0000
,  // measure 180
1000
0000
0001
0000
,  // measure 181
1000
0000
0100
0000
,  // measure 182
0020
0000
0000
0230
,  // measure 183
0000
0000
0000
0302
0000
0000
0000
0000
,  // measure 184
2003
0000
0000
0000
0000
3020
0000
0000
,  // measure 185
0000
0000
0000
0230
0000
0000
0000
0000
,  // measure 186
0302
2003
3020
1030
,  // measure 187
0000
0100
0000
0010
,  // measure 188
0000
0001
0000
1000
,  // measure 189
0000
0001
0000
0010
,  // measure 190
0000
0100
0000
1000
,  // measure 191
0000
0100
0000
0010
,  // measure 192
0000
1000
0000
0001
,  // measure 193
0000
0100
0000
0001
,  // measure 194
0000
1000
0000
0001
,  // measure 195
0000
0010
0000
0100
,  // measure 196
0000
1000
0000
0001
,  // measure 197
0000
0010
0000
0100
,  // measure 198
0000
1000
0000
0001
,  // measure 199
0000
1000
0000
0010
,  // measure 200
0000
0100
0000
0001
,  // measure 201
0000
1000
0000
0001
,  // measure 202
0000
0100
0000
0001
,  // measure 203
0000
1000
0000
0010
,  // measure 204
0000
0100
0000
0001
,  // measure 205
0000
1000
0000
0010
,  // measure 206
0000
0100
0000
0001
,  // measure 207
0000
0010
0000
0001
,  // measure 208
0000
1000
0000
0100
,  // measure 209
0000
1000
0000
0010
,  // measure 210
0000
0100
0000
0010
,  // measure 211
0000
0001
0000
0010
,  // measure 212
0000
0100
0000
1000
,  // measure 213
0000
0100
0000
0010
,  // measure 214
0000
0001
0000
0010
,  // measure 215
0000
0100
0000
1000
,  // measure 216
0000
0100
0000
0010
,  // measure 217
0000
0001
0000
0010
,  // measure 218
0000
0100
0000
1000
,  // measure 219
0000
0100
0000
0010
,  // measure 220
0000
0001
0000
1000
,  // measure 221
0000
0001
0000
0100
,  // measure 222
0000
0010
0000
1000
,  // measure 223
0000
0001
0000
0010
,  // measure 224
0000
0001
0000
1000
,  // measure 225
0000
0100
0000
1000
,  // measure 226
0000
0010
0000
0100
,  // measure 227
0000
0010
0000
1000
,  // measure 228
0000
0001
0000
1000
,  // measure 229
0000
0001
0000
0100
,  // measure 230
0000
0001
0000
1000
,  // measure 231
0000
0010
0000
0100
,  // measure 232
0000
0001
0000
1000
,  // measure 233
0000
0010
0000
0100
,  // measure 234
0000
0001
0000
1000
,  // measure 235
0000
0001
0000
0100
,  // measure 236
0000
0010
0000
1000
,  // measure 237
0000
0001
0000
0010
,  // measure 238
0000
0100
0000
1000
,  // measure 239
0000
0100
0000
0010
,  // measure 240
0000
1000
0000
0010
,  // measure 241
0000
0001
0000
1000
,  // measure 242
0000
0010
0000
0001
,  // measure 243
0000
0010
0000
0100
,  // measure 244
0000
1000
0000
0001
,  // measure 245
0000
0100
0000
0001
,  // measure 246
0000
1000
0000
0010
,  // measure 247
0000
0100
0000
0001
,  // measure 248
0000
0100
0000
1000
,  // measure 249
0000
0010
0000
0100
,  // measure 250
0000
0001
0000
0010
,  // measure 251
0000
0100
0000
1000
,  // measure 252
0000
0100
0000
0010
,  // measure 253
0000
0001
0000
1000
,  // measure 254
0000
0100
0000
0010
,  // measure 255
0000
0001
0000
0100
,  // measure 256
0000
0001
0000
1000
,  // measure 257
0000
0001
0000
1000
,  // measure 258
0000
0001
0000
1000
,  // measure 259
0000
0001
0000
0010
,  // measure 260
0000
0001
0000
0100
,  // measure 261
0000
0001
0000
1000
,  // measure 262
0000
0001
0000
1000
,  // measure 263
0000
0100
0000
1000
,  // measure 264
0000
0010
0000
1000
,  // measure 265
0000
0010
0000
0001
,  // measure 266
0000
0100
0000
0001
,  // measure 267
0000
1000
0000
0010
,  // measure 268
0000
0100
0000
0001
,  // measure 269
0000
1000
0000
0010
,  // measure 270
0000
0100
0000
0001
,  // measure 271
0000
1000
0000
0010
,  // measure 272
0000
0100
0000
0001
,  // measure 273
0000
1000
0000
0010
,  // measure 274
0000
0100
0000
0001
,  // measure 275
0000
1000
0000
0001
,  // measure 276
0000
0100
0000
0010
,  // measure 277
0000
0001
0000
1000
,  // measure 278
0000
0010
0000
1000
,  // measure 279
0000
0100
0000
0001
,  // measure 280
0000
1000
0000
0010
,  // measure 281
0000
0100
0000
0001
,  // measure 282
0000
0100
0000
0010
,  // measure 283
0000
1000
0000
0100
,  // measure 284
0000
0010
0000
0001
,  // measure 285
0000
0100
0000
1000
,  // measure 286
0000
0001
0000
0010
,  // measure 287
0000
1000
0000
0100
,  // measure 288
0000
0001
0000
1000
,  // measure 289
0000
0010
0000
0100
,  // measure 290
0000
0001
0000
0100
,  // measure 291
0000
1000
0000
0100
,  // measure 292
0000
0010
0000
1000
,  // measure 293
0000
0001
0000
0100
,  // measure 294
0000
1000
0000
0001
,  // measure 295
0000
1000
0000
0010
,  // measure 296
0000
0100
0000
0001
,  // measure 297
0000
1000
0000
0001
,  // measure 298
0000
0100
0000
1000
,  // measure 299
0000
0010
0000
1000
,  // measure 300
0000
0100
0000
0001
,  // measure 301
0000
1000
0000
0001
,  // measure 302
0000
0010
0000
1000
,  // measure 303
0000
0100
0000
1000
,  // measure 304
0000
0001
0000
0010
,  // measure 305
0000
1000
0000
0001
,  // measure 306
0000
0010
0000
1000
,  // measure 307
0000
0100
0000
0010
,  // measure 308
0000
0001
0000
0010
,  // measure 309
0000
0100
0000
1000
,  // measure 310
0000
0100
0000
0010
,  // measure 311
0000
0001
0000
0010
,  // measure 312
0000
0100
0000
1000
,  // measure 313
0000
0002
0000
0000
,  // measure 314
0000
0000
0000
0000
,  // measure 315
0003
0000
0000
0000
;

//---------------dance-single - ----------------
#NOTES:
     dance-single:
     :
     Challenge:
     11:
     1.000,1.000,0.226,0.256,0.000,1197.000,30.000,34.000,0.000,0.000:  // measure 1
1000
0001
0100
0010
,  // measure 2
1000
0001
0010
0100
,  // measure 3
1000
0001
0100
0010
,  // measure 4
1000
0100
0010
0001
,  // measure 5
1000
0010
1000
0001
,  // measure 6
0100
0010
1000
0001
,  // measure 7
1000
0010
0100
0001
,  // measure 8
1000
0010
0001
0100
,  // measure 9
0001
1000
0010
0100
,  // measure 10
0001
0010
0100
1000
,  // measure 11
0001
0100
0001
0100
,  // measure 12
0010
1000
0100
0010
,  // measure 13
0001
0100
0001
0100
,  // measure 14
1000
0010
0100
0001
,  // measure 15
1000
0100
0010
0001
,  // measure 16
1000
0100
1000
0001
,  // measure 17
0100
0010
1000
0001
,  // measure 18
1000
0010
0100
0001
,  // measure 19
0100
0010
1000
0100
,  // measure 20
1000
0001
0100
0010
,  // measure 21
1000
0001
0100
0001
,  // measure 22
0010
0100
1000
0001
,  // measure 23
0010
0100
1000
0100
,  // measure 24
0010
0001
1000
0100
,  // measure 25
0010
0001
0010
0100
,  // measure 26
1000
0010
0100
0001
,  // measure 27
0010
0100
1000
0100
,  // measure 28
0010
0001
1000
0001
,  // measure 29
0100
0010
1000
0001
,  // measure 30
1000
0100
0010
1000
,  // measure 31
0010
0100
0010
0001
,  // measure 32
0100
0010
0100
1000
,  // measure 33
0100
0010
0001
0010
,  // measure 34
0100
0001
1000
0010
,  // measure 35
0100
0001
0010
1000
,  // measure 36
0001
0100
0010
1000
,  // measure 37
0001
1000
0010
0100
,  // measure 38
0001
1000
0001
0100
,  // measure 39
0010
1000
0001
0010
,  // measure 40
0100
1000
0001
1000
,  // measure 41
0100
0001
1000
0010
,  // measure 42
0001
1000
0100
1000
,  // measure 43
0100
0001
1000
0010
,  // measure 44
0001
1000
0100
0010
,  // measure 45
1000
0100
0010
0001
,  // measure 46
0010
0100
1000
0010
,  // measure 47
0100
0001
0010
0100
,  // measure 48
1000
0001
0100
0010
,  // measure 49
1000
0001
0100
0001
,  // measure 50
1000
0010
0100
0001
,  // measure 51
1000
0001
0010
0100
,  // measure 52
1000
0100
0010
1000
,  // measure 53
0001
0100
0001
1000
,  // measure 54
0100
0010
1000
0001
,  // measure 55
0010
1000
0001
0100
,  // measure 56
0001
1000
0100
0001
,  // measure 57
1000
0010
0001
1000
,  // measure 58
0100
1000
0010
1000
,  // measure 59
0001
0100
0001
0010
,  // measure 60
0001
0100
0001
1000
,  // measure 61
0100
0010
1000
0001
,  // measure 62
0100
0010
1000
0001
,  // measure 63
0100
0001
1000
0001
,  // measure 64
0010
0100
1000
0010
,  // measure 65
0100
0010
0001
0100
,  // measure 66
0010
1000
0001
0100
,  // measure 67
0020
0000
0000
0000
,  // measure 68
0000
2030
0000
0000
0000
0000
3002
0000
,  // measure 69
0000
0000
0000
0203
0000
0000
0000
0000
,  // measure 70
0000
0320
0000
0000
0000
0000
2030
0000
,  // measure 71
0000
0000
0000
3002
0000
0000
0000
0000
,  // measure 72
0200
0003
0000
0000
0000
0320
0000
0000
,  // measure 73
0000
2030
0000
0000
,  // measure 74
3020
0000
0000
0000
0000
0032
0000
0000
,  // measure 75
0000
0000
2003
0000
0000
0000
0000
3020
,  // measure 76
0000
0000
0230
0000
,  // measure 77
0000
0302
0000
0000
0000
0000
0000
2003
,  // measure 78
0000
0000
3200
0000
,  // measure 79
0000
0320
0000
0000
0000
0000
0030
0000
,  // measure 80
0001
1000
0010
0100
,  // measure 81
0001
0100
0010
1000
,  // measure 82
0001
1000
0010
0100
,  // measure 83
0001
0100
0010
1000
,  // measure 84
0001
1000
0010
0100
,  // measure 85
0001
0100
0010
1000
,  // measure 86
0001
0010
0100
1000
,  // measure 87
0001
0100
0001
0100
,  // measure 88
0001
1000
0100
0010
,  // measure 89
0001
0100
0010
1000
,  // measure 90
0100
0010
0001
0100
,  // measure 91
0010
1000
0100
0010
,  // measure 92
0001
1000
0001
0010
,  // measure 93
0100
1000
0010
0100
,  // measure 94
0001
0010
0100
1000
,  // measure 95
0010
1000
0001
1000
,  // measure 96
0001
1000
0100
0010
,  // measure 97
0001
0100
0010
1000
,  // measure 98
0100
0010
0001
0100
,  // measure 99
0010
1000
0001
1000
,  // measure 100
0001
0010
0100
0001
,  // measure 101
0100
0010
1000
0001
,  // measure 102
0100
0010
1000
0010
,  // measure 103
0100
0001
0010
0100
,  // measure 104
1000
0100
0010
0001
,  // measure 105
0010
0100
1000
0100
,  // measure 106
0010
0001
0010
0100
,  // measure 107
1000
0100
1000
0100
,  // measure 108
0010
0001
0010
0100
,  // measure 109
0010
0001
0010
0100
,  // measure 110
1000
0100
0010
0001
,  // measure 111
0010
0100
1000
0100
,  // measure 112
0010
0001
0010
0100
,  // measure 113
1000
0100
0010
0001
,  // measure 114
2000
0000
0000
0000
0000
3000
2000
0000
,  // measure 115
0000
3000
0000
0200
0000
0000
0000
0000
,  // measure 116
0320
0000
0000
0000
0000
0032
0003
0000
,  // measure 117
0010
1000
0001
0100
,  // measure 118
0010
1000
0010
0100
,  // measure 119
0001
1000
0100
0010
,  // measure 120
0001
1000
0001
0100
,  // measure 121
0001
0010
1000
0001
,  // measure 122
0100
0010
1000
0001
,  // measure 123
0100
0001
1000
0010
,  // measure 124
0001
1000
0100
1000
,  // measure 125
0001
0010
0001
0100
,  // measure 126
0001
1000
0100
0010
,  // measure 127
0001
1000
0001
0010
,  // measure 128
0001
0100
0010
1000
,  // measure 129
0001
1000
0100
0001
,  // measure 130
1000
0010
0100
0001
,  // measure 131
0010
0001
1000
0100
,  // measure 132
0010
1000
0001
0010
,  // measure 133
0001
0100
0010
1000
,  // measure 134
0001
0010
0100
1000
,  // measure 135
0010
0001
0100
0010
,  // measure 136
1000
0100
0010
0001
,  // measure 137
1000
0000
0000
0001
0010
0000
0100
0000
,  // measure 138
1000
0001
0100
0010
,  // measure 139
1000
0100
0010
0001
,  // measure 140
0010
0100
1000
0001
,  // measure 141
0100
0001
1000
0010
,  // measure 142
0100
0000
0010
1000
,  // measure 143
0001
0100
0010
1000
,  // measure 144
0001
0000
0100
0000
0001
0000
0000
1000
,  // measure 145
0100
0010
0001
1000
,  // measure 146
0001
0000
0000
1000
0001
0000
0100
0000
,  // measure 147
0001
1000
0010
0100
,  // measure 148
0001
0000
0010
1000
,  // measure 149
0001
0010
0100
1000
,  // measure 150
0010
0100
0001
0010
,  // measure 151
0100
1000
0100
0010
,  // measure 152
0001
1000
0100
0001
,  // measure 153
1000
0010
0100
0001
,  // measure 154
1000
0010
1000
0001
,  // measure 155
0010
0000
0100
0000
1000
0000
0011
1100
,  // measure 156
0000
0000
0011
1100
0011
0000
0000
1000
,  // measure 157
0101
0000
0000
0010
1100
0000
0000
0001
,  // measure 158
0110
0000
0000
0100
1001
0000
0000
1000
,  // measure 159
0011
0000
0000
0010
1100
0000
0000
0001
,  // measure 160
0110
0000
0000
0010
1001
0000
0000
1000
,  // measure 161
0101
0000
0000
0100
0011
0000
0000
0010
,  // measure 162
1100
0000
0000
0001
0110
0000
0000
0100
,  // measure 163
1010
0000
0000
0010
0101
0000
0000
1000
,  // measure 164
0011
0000
0000
0010
1100
0000
0000
0100
,  // measure 165
0011
0000
0000
0001
0110
0000
0000
0010
,  // measure 166
1100
0000
0000
1000
0101
0000
0000
0001
,  // measure 167
1010
0000
0000
1000
0110
0000
0000
0010
,  // measure 168
0101
0000
0000
0100
1001
0000
0000
0001
,  // measure 169
0110
0000
1000
0100
,  // measure 170
0010
0001
1000
0001
,  // measure 171
0010
0100
0001
1000
,  // measure 172
0100
0010
1000
0001
,  // measure 173
0100
0001
1000
0100
,  // measure 174
0010
0001
0010
0100
,  // measure 175
1000
0001
0100
0001
,  // measure 176
1000
0010
0100
0001
,  // measure 177
0010
1000
0100
0001
,  // measure 178
1000
0010
0100
0001
,  // measure 179
1000
0010
0100
0001
,  // measure 180
1000
0001
0100
0010
,  // measure 181
1000
0001
0100
0010
,  // measure 182
2000
0000
0000
3200
,  // measure 183
0000
0000
0000
0320
0000
0000
0000
0000
,  // measure 184
0032
0000
0000
0000
0000
2003
0000
0000
,  // measure 185
0000
0000
0000
3020
0000
0000
0000
0000
,  // measure 186
0032
2003
3020
0030
,  // measure 187
0100
0001
1000
0010
,  // measure 188
0100
0001
1000
0001
,  // measure 189
0100
0010
1000
0001
,  // measure 190
1000
0100
0010
0001
,  // measure 191
1000
0001
0010
0100
,  // measure 192
1000
0100
0010
0001
,  // measure 193
1000
0001
0010
0100
,  // measure 194
1000
0001
0100
0001
,  // measure 195
1000
0010
0100
0001
,  // measure 196
1000
0001
0010
0001
,  // measure 197
0100
0010
1000
0010
,  // measure 198
0100
0010
0001
0100
,  // measure 199
0010
1000
0010
0100
,  // measure 200
0010
0001
0100
1000
,  // measure 201
0010
0100
0001
0010
,  // measure 202
0100
0010
0001
0100
,  // measure 203
1000
0001
0100
1000
,  // measure 204
0001
0100
0010
1000
,  // measure 205
0001
0100
1000
0001
,  // measure 206
0100
0001
1000
0100
,  // measure 207
0010
0001
0100
0001
,  // measure 208
1000
0001
0100
0001
,  // measure 209
0100
0010
1000
0100
,  // measure 210
0010
0001
0010
0100
,  // measure 211
1000
0001
0100
0010
,  // measure 212
1000
0001
0010
0100
,  // measure 213
1000
0001
0100
0010
,  // measure 214
1000
0100
0010
0001
,  // measure 215
1000
0010
1000
0001
,  // measure 216
0100
0010
1000
0001
,  // measure 217
1000
0010
0100
0001
,  // measure 218
1000
0010
0001
0100
,  // measure 219
0001
1000
0010
0100
,  // measure 220
0001
0010
0100
1000
,  // measure 221
0001
0100
0001
0100
,  // measure 222
0010
1000
0100
0010
,  // measure 223
0001
0100
0001
0100
,  // measure 224
1000
0010
0100
0001
,  // measure 225
1000
0100
0010
0001
,  // measure 226
1000
0100
1000
0001
,  // measure 227
0100
0010
1000
0001
,  // measure 228
1000
0010
0100
0001
,  // measure 229
0100
0010
1000
0100
,  // measure 230
1000
0001
0100
0010
,  // measure 231
1000
0001
0100
0001
,  // measure 232
0010
0100
1000
0001
,  // measure 233
0010
0100
1000
0100
,  // measure 234
0010
0001
1000
0100
,  // measure 235
0010
0001
0010
0100
,  // measure 236
1000
0010
0100
0001
,  // measure 237
0010
0100
1000
0100
,  // measure 238
0010
0001
1000
0001
,  // measure 239
0100
0010
1000
0001
,  // measure 240
1000
0100
0010
1000
,  // measure 241
0010
0100
0010
0001
,  // measure 242
0100
0010
0100
1000
,  // measure 243
0100
0010
0001
0010
,  // measure 244
0100
0001
1000
0010
,  // measure 245
0100
0001
0010
1000
,  // measure 246
0001
0100
0010
1000
,  // measure 247
0001
1000
0010
0100
,  // measure 248
0001
1000
0001
0100
,  // measure 249
0010
1000
0001
0010
,  // measure 250
0100
1000
0001
1000
,  // measure 251
0100
0001
1000
0010
,  // measure 252
0001
1000
0100
1000
,  // measure 253
0100
0001
1000
0010
,  // measure 254
0001
1000
0100
0010
,  // measure 255
1000
0100
0010
0001
,  // measure 256
0010
0100
1000
0010
,  // measure 257
0100
0001
0010
0100
,  // measure 258
1000
0001
0100
0010
,  // measure 259
1000
0001
0100
0001
,  // measure 260
1000
0010
0100
0001
,  // measure 261
1000
0001
0010
0100
,  // measure 262
1000
0100
0010
1000
,  // measure 263
0001
0100
0001
1000
,  // measure 264
0100
0010
1000
0001
,  // measure 265
0010
1000
0001
0100
,  // measure 266
0001
1000
0100
0001
,  // measure 267
1000
0010
0001
1000
,  // measure 268
0100
1000
0010
1000
,  // measure 269
0001
0100
0001
0010
,  // measure 270
0001
0100
0001
1000
,  // measure 271
0100
0010
1000
0001
,  // measure 272
0100
0010
1000
0001
,  // measure 273
0100
0001
1000
0001
,  // measure 274
0010
0100
1000
0010
,  // measure 275
0100
0010
0001
0100
,  // measure 276
0010
1000
0001
0100
,  // measure 277
0010
1000
0001
0010
,  // measure 278
0100
1000
0100
0010
,  // measure 279
0001
1000
0010
0100
,  // measure 280
0001
0010
1000
0001
,  // measure 281
0100
0010
1000
0100
,  // measure 282
0010
0001
0010
0100
,  // measure 283
1000
0100
0010
0001
,  // measure 284
1000
0001
0100
0001
,  // measure 285
1000
0100
0010
1000
,  // measure 286
0010
0100
0001
1000
,  // measure 287
0001
1000
0010
0100
,  // measure 288
0001
0100
0010
1000
,  // measure 289
0001
1000
0010
0100
,  // measure 290
0001
0100
0010
1000
,  // measure 291
0001
1000
0010
0100
,  // measure 292
0001
0100
0010
1000
,  // measure 293
0001
0010
0100
1000
,  // measure 294
0001
0100
0001
0100
,  // measure 295
0001
1000
0100
0010
,  // measure 296
0001
0100
0010
1000
,  // measure 297
0100
0010
0001
0100
,  // measure 298
0010
1000
0100
0010
,  // measure 299
0001
1000
0001
0010
,  // measure 300
0100
1000
0010
0100
,  // measure 301
0001
0010
0100
1000
,  // measure 302
0010
1000
0001
1000
,  // measure 303
0001
1000
0100
0010
,  // measure 304
0001
0100
0010
1000
,  // measure 305
0100
0010
0001
0100
,  // measure 306
0010
1000
0001
1000
,  // measure 307
0001
0010
0100
0001
,  // measure 308
0100
0010
1000
0001
,  // measure 309
0100
0010
1000
0010
,  // measure 310
0100
0001
0010
0100
,  // measure 311
1000
0100
0010
0001
,  // measure 312
0010
0100
1000
0100
,  // measure 313
0010
0002
0000
0000
,  // measure 314
0003
0000
0000
0000
;
